Гастроли долга / Срок службы / Tour of Duty (Билл Л. Нортон / Bill Norton, Джим Джонстон / Jim Johnston) [1987, США, боевик, драма, военный, VHSRip] [пилот] AVO Михаил Иванов

Ответить на тему
Статистика раздачи
Размер:  1,37 GB   |    Зарегистрирован:  9 месяцев 18 дней   |    Скачан:  0 раз

Полного источника не было: Никогда

 
   
 
 
Автор Сообщение

star21 ®

Пол: Не указан

Стаж: 1 год 11 месяцев

Сообщений: 355767

Создавать темы 02-Янв-2017 07:00

[Цитировать]

Гастроли долга / Срок службы / Tour of Duty / пилот
Страна: США
Жанр: боевик, драма, военный
Год выпуска: 1987
Продолжительность: 01:28:54
Перевод: Авторский одноголосый закадровый Михаил Иванов
Cубтитры: нет
Режиссер: Билл Л. Нортон / Bill Norton, Джим Джонстон / Jim Johnston
В ролях: Теренс Нокс
Стефен Кэффри
Тони Бекер
Мигель А. Нуньес мл.
Рамон Франко
Стэн Фостер
Дэн Готье
Эрик Браскоттер
Джошуа Д. Морер
Описание: Приключения взвода солдат американской армии, сражающихся на полях сражений Вьетнамской Войны…
Доп. информация: Оцифровку VHS любезно предоставил для релиза на трекер d_rocker
Релиз
Сэмпл: https://yadi.sk/i/f22DJPRY32FHMQ
Качество видео: VHSRip
Формат видео: AVI
Видео: 704x528 (1.33:1), 25 fps, XviD build 73 ~1999 kbps avg, 0.22 bit/pixel
Аудио: 48 kHz, AC3 Dolby Digital, 2/0 (L,R) ch, ~192 kbps

MediaInfo

Гастроли долга - Tour of Duty [by Edich2].avi
Format : AVI
Format/Info : Audio Video Interleave
File size : 1.37 GiB
Duration : 1 h 28 min
Overall bit rate : 2 201 kb/s
Movie name : Гастроли долга - Tour of Duty [by Edich2]
Director : by Edich2
Writing application : VirtualDubMod 1.5.10.3 | www.virtualdub-fr.org || (build 2550/release)
Comment : RuTracker.org
Video
ID : 0
Format : MPEG-4 Visual
Format profile : Advanced Simple@L5
Format settings, BVOP : 2
Format settings, QPel : No
Format settings, GMC : No warppoints
Format settings, Matrix : Custom
Codec ID : XVID
Codec ID/Hint : XviD
Duration : 1 h 28 min
Bit rate : 2 000 kb/s
Width : 704 pixels
Height : 528 pixels
Display aspect ratio : 4:3
Frame rate : 25.000 FPS
Color space : YUV
Chroma subsampling : 4:2:0
Bit depth : 8 bits
Scan type : Progressive
Compression mode : Lossy
Bits/(Pixel*Frame) : 0.215
Stream size : 1.24 GiB (91%)
Writing library : XviD 73
Audio
ID : 1
Format : AC-3
Format/Info : Audio Coding 3
Mode extension : CM (complete main)
Format settings, Endianness : Big
Codec ID : 2000
Duration : 1 h 28 min
Bit rate mode : Constant
Bit rate : 192 kb/s
Channel(s) : 2 channels
Channel positions : Front: L R
Sampling rate : 48.0 kHz
Frame rate : 31.250 FPS (1536 spf)
Compression mode : Lossy
Stream size : 122 MiB (9%)
Alignment : Split accross interleaves
Interleave, duration : 40 ms (1.00 video frame)
Interleave, preload duratio : 500 ms

Скриншоты


Для скачки контента: [Установить программу-клиент] и кликнуть по - Скачать

[asmlocator.ru].t299370.torrent 
Торрент: Зарегистрирован [ 2017-01-02 07:00 ] · 89075B85F533F1320B2FA417402835A41A4625CF

Скачать .torrent

Скачать

14 KB

Статус: проверено
Скачан: 0 раз
Размер: 1,37 GB
terms.php
[Профиль] [ЛС]
Показать сообщения:    
Ответить на тему

Текущее время: 21-Окт 02:49

Часовой пояс: UTC ± 0



Вы не можете начинать темы
Вы не можете отвечать на сообщения
Вы не можете редактировать свои сообщения
Вы не можете удалять свои сообщения
Вы не можете голосовать в опросах
Вы не можете прикреплять файлы к сообщениям
Вы можете скачивать файлы