Перси Джексон и похититель молний / Percy Jackson & the Olympians: The Lightning Thief (Крис Коламбус / Chris Columbus) [2010, США, Фэнтези, Приключения, Семейный, HDTVRip][Open Matte] Dub + MVO (1 канал) + Eng

Ответить на тему
Статистика раздачи
Размер:  2,19 GB   |    Зарегистрирован:  1 месяц 27 дней   |    Скачан:  0 раз

Полного источника не было: Никогда

 
   
 
 
Автор Сообщение

star21 ®

Пол: Не указан

Стаж: 1 год 3 месяца

Сообщений: 299760

Создавать темы 29-Дек-2016 11:15

[Цитировать]

Перси Джексон и похититель молний / Percy Jackson & the Olympians: The Lightning Thief
Страна: США
Жанр: Фэнтези, Приключения, Семейный
Год выпуска: 2010
Продолжительность: 01:49:20
Перевод 1: Профессиональный (дублированный)
Перевод 2: Профессиональный (многоголосый закадровый) 1 канал
Cубтитры: нет
Оригинальная аудиодорожка: английский
Режиссер: Крис Коламбус / Chris Columbus
В ролях: Логан Лерман, Брэндон Т. Джексон, Александра Даддарио, Джейк Эйбел, Шон Бин, Пирс Броснан, Стив Куган, Розарио Доусон, Мелина Канакаридис, Кэтрин Кинери и др.
Описание: Главный персонаж — мальчик, узнавший, что его отец — греческий бог. В сопровождении сатира и дочери Афины он отправляется в опасное путешествие, чтобы примирить богов.
Доп. информация: Рип с канала Первый HD. Из видеоряда удален логотип канала и все посторонние вставки. Восстановлены финальные титры в полном объеме. Добавлены дубляж и английская дорожка с BD - субтитры и звук с BD к рипу полностью подходят. HDTV и BD имеют разное наполнение кадра http://screenshotcomparison.com/comparison/76629
Сэмпл: http://multi-up.com/1088639
Качество видео: HDTVRip
Формат видео: AVI
Видео: MPEG4, XviD, 720x400 (16:9), 23.976 fps, 1 537 Kbps (0.223 bit/pixel)
Аудио: AC-3, 48.0 KHz, 6 ch, 448 Kbps, CBR - dub
Аудио 2: AC-3, 48.0 KHz, 2 ch, 192 Kbps, CBR - mvo
Аудио 3: AC-3, 48.0 KHz, 6 ch, 448 Kbps, CBR - eng

MediaInfo

Общее
Полное имя : N:\Перси Джексон и похититель молний.avi
Формат : AVI
Формат/Информация : Audio Video Interleave
Профиль формата : OpenDML
Размер файла : 2,19 Гбайт
Продолжительность : 1 ч. 58 м.
Общий поток : 2649 Кбит/сек
Название фильма : Перси Джексон и похититель молний / Percy Jackson & the Olympians: The Lightning Thief (2010)
Программа кодирования : VirtualDubMod 1.5.10.2 (build 2540/release)
Библиотека кодирования : VirtualDubMod build 2540/release
Авторское право : miha2154
Видео
Идентификатор : 0
Формат : MPEG-4 Visual
Профиль формата : Advanced Simple@L5
Параметр BVOP формата : 1
Параметр QPel формата : Нет
Параметр GMC формата : Без точки перехода
Параметр матрицы формата : Выборочная
Идентификатор кодека : XVID
Идентификатор кодека/Подсказка : XviD
Продолжительность : 1 ч. 58 м.
Битрейт : 1537 Кбит/сек
Ширина : 720 пикселей
Высота : 400 пикселей
Соотношение сторон : 16:9
Частота кадров : 23,976 (23976/1000) кадра/сек
Цветовое пространство : YUV
Субдискретизация насыщенности : 4:2:0
Битовая глубина : 8 бит
Тип развёртки : Прогрессивная
Метод сжатия : С потерями
Бит/(Пиксели*Кадры) : 0.223
Размер потока : 1,27 Гбайт (58%)
Библиотека кодирования : XviD 65
Аудио #1
Идентификатор : 1
Формат : AC-3
Формат/Информация : Audio Coding 3
Расширение режима : CM (complete main)
Параметр Endianness формата : Big
Идентификатор кодека : 2000
Продолжительность : 1 ч. 58 м.
Вид битрейта : Постоянный
Битрейт : 448 Кбит/сек
Каналы : 6 каналов
Расположение каналов : Front: L C R, Side: L R, LFE
Частота : 48,0 КГц
Частота кадров : 31,250 кадров/сек (1536 spf)
Метод сжатия : С потерями
Размер потока : 380 Мбайт (17%)
Выравнивание : Разделение по промежуткам
Продолжительность промежутка : 42 мс. (1,00 видеокадр)
Время предзагрузки промежутка : 500 мс.
Заголовок : Профессиональный (полное дублирование)
Аудио #2
Идентификатор : 2
Формат : AC-3
Формат/Информация : Audio Coding 3
Расширение режима : CM (complete main)
Параметр Endianness формата : Big
Идентификатор кодека : 2000
Продолжительность : 1 ч. 58 м.
Вид битрейта : Постоянный
Битрейт : 192 Кбит/сек
Каналы : 2 канала
Расположение каналов : Front: L R
Частота : 48,0 КГц
Частота кадров : 31,250 кадров/сек (1536 spf)
Метод сжатия : С потерями
Размер потока : 163 Мбайт (7%)
Выравнивание : Разделение по промежуткам
Продолжительность промежутка : 42 мс. (1,00 видеокадр)
Время предзагрузки промежутка : 500 мс.
Заголовок : Профессиональный (многоголосый закадровый) 1 канал
Аудио #3
Идентификатор : 3
Формат : AC-3
Формат/Информация : Audio Coding 3
Расширение режима : CM (complete main)
Параметр Endianness формата : Big
Идентификатор кодека : 2000
Продолжительность : 1 ч. 58 м.
Вид битрейта : Постоянный
Битрейт : 448 Кбит/сек
Каналы : 6 каналов
Расположение каналов : Front: L C R, Side: L R, LFE
Частота : 48,0 КГц
Частота кадров : 31,250 кадров/сек (1536 spf)
Метод сжатия : С потерями
Размер потока : 380 Мбайт (17%)
Выравнивание : Разделение по промежуткам
Продолжительность промежутка : 42 мс. (1,00 видеокадр)
Время предзагрузки промежутка : 500 мс.
Заголовок : Английский

Скриншоты


Торрент перезалит 11.02.16 - заменен рип, добавлены дубляж и английская дорожка

Если ваш рейтинг упадет ниже 0,3, вы не сможете скачивать торренты! Подробнее о рейтинге.

[asmlocator.ru].t297958.torrent 
Торрент: Зарегистрирован [ 2016-12-29 11:15 ] · 2F4A15F449982D3B8D9B409F91BDBACBD9258BEB

Скачать .torrent

Скачать

11 KB

Статус: проверено
Скачан: 0 раз
Размер: 2,19 GB
terms.php
[Профиль] [ЛС]
Показать сообщения:    
Ответить на тему

Текущее время: 25-Фев 13:40

Часовой пояс: UTC ± 0



Вы не можете начинать темы
Вы не можете отвечать на сообщения
Вы не можете редактировать свои сообщения
Вы не можете удалять свои сообщения
Вы не можете голосовать в опросах
Вы не можете прикреплять файлы к сообщениям
Вы можете скачивать файлы