Супермодель / Super Model (Нэвин Батра / Naveen Batra) [2013, Индия, Драма, мелодрама, детектив, DVDRip] DVO (Ульпаней Эльром) + Original

Ответить на тему
Статистика раздачи
Размер:  1,41 GB   |    Зарегистрирован:  3 месяца 1 день   |    Скачан:  0 раз

Полного источника не было: Никогда

 
   
 
 
Автор Сообщение

star21 ®

Пол: Не указан

Стаж: 1 год 4 месяца

Сообщений: 300211

Создавать темы 27-Дек-2016 17:25

[Цитировать]

Супермодель / Super Model
Страна: Индия
Жанр: Драма, мелодрама, детектив
Год выпуска: 2013
Продолжительность: 01:25:34
Перевод: Профессиональный (двухголосый закадровый) Ульпаней Эльром
Cубтитры: нет
Оригинальная аудиодорожка: Хинди
Режиссер: Нэвин Батра / Naveen Batra
В ролях: Прабха Али, Вахид Али, Харш Чхая, Бобби Дарлинг, Ади Ирани, Джеки Шрофф, Апарна Джадхав, Вина Малик, Наталия Коженова, Сана Оберой, Ашмит Патель, Ману Раджаппа, Гупта Вишакха
Описание: Для продвижения на рынке новой марки вина, винный магнат объявляет кастинг для супермоделей. Для этой же цели он нанимает фотографа для работы на Фиджи. На фоне борьбы за заключение контракта, подающая надежды модель сталкивается с жёсткой конкуренцией со стороны других красавиц. Но тут начинается серия таинственных убийств конкурсанток ...
Доп. информация: Запись звука с т/к Bollywood HD и его сведение - oktober
Сэмпл: http://multi-up.com/1088049
Качество видео: DVDRip
Формат видео: AVI
Видео: XviD build 50, 720x304 (2.37:1), 23.976 fps, 1827 kbps avg
Аудио: Rus AC3 Dolby Digital, 48 kHz, 2/0 (L,R) ch, 256.00 kbps
Аудио 2: Hindi AC3 Dolby Digital, 48 kHz, 2/0 (L,R) ch, 256.00 kbps

MediaInfo

General
Complete name : F:\Supermodel.2013.DVDRip.XviD.oktober.avi
Format : AVI
Format/Info : Audio Video Interleave
File size : 1.41 GiB
Duration : 1h 25mn
Overall bit rate : 2 354 Kbps
Writing application : VirtualDubMod 1.5.10.2 (build 2540/release)
Writing library : VirtualDubMod build 2540/release
Video
ID : 0
Format : MPEG-4 Visual
Format profile : AdvancedSimple@L5
Format settings, BVOP : Yes
Format settings, QPel : No
Format settings, GMC : No warppoints
Format settings, Matrix : Default (MPEG)
Codec ID : XVID
Codec ID/Hint : XviD
Duration : 1h 25mn
Bit rate : 1 828 Kbps
Width : 720 pixels
Height : 304 pixels
Display aspect ratio : 2.35
Frame rate : 23.976 fps
Resolution : 24 bits
Colorimetry : 4:2:0
Scan type : Progressive
Bits/(Pixel*Frame) : 0.348
Stream size : 1.09 GiB (78%)
Writing library : XviD 1.2.1 (UTC 2008-12-04)
Audio #1
ID : 1
Format : AC-3
Format/Info : Audio Coding 3
Codec ID : 2000
Duration : 1h 25mn
Bit rate mode : Constant
Bit rate : 256 Kbps
Channel(s) : 2 channels
Channel positions : L R
Sampling rate : 48.0 KHz
Stream size : 157 MiB (11%)
Alignment : Split accross interleaves
Interleave, duration : 42 ms (1.00 video frame)
Interleave, preload duration : 500 ms
Audio #2
ID : 2
Format : AC-3
Format/Info : Audio Coding 3
Codec ID : 2000
Duration : 1h 25mn
Bit rate mode : Constant
Bit rate : 256 Kbps
Channel(s) : 2 channels
Channel positions : L R
Sampling rate : 48.0 KHz
Stream size : 157 MiB (11%)
Alignment : Split accross interleaves
Interleave, duration : 42 ms (1.00 video frame)
Interleave, preload duration : 500 ms

Скриншот c названием фильма

Скриншоты

Если ваш рейтинг упадет ниже 0,3, вы не сможете скачивать торренты! Подробнее о рейтинге.

[asmlocator.ru].t296435.torrent 
Торрент: Зарегистрирован [ 2016-12-27 17:25 ] · 8CE6D1ADB46945B17D939699DEA4BD0F3BBFE507

Скачать .torrent

Скачать

15 KB

Статус: проверено
Скачан: 0 раз
Размер: 1,41 GB
terms.php
[Профиль] [ЛС]
Показать сообщения:    
Ответить на тему

Текущее время: 28-Мар 17:43

Часовой пояс: UTC ± 0



Вы не можете начинать темы
Вы не можете отвечать на сообщения
Вы не можете редактировать свои сообщения
Вы не можете удалять свои сообщения
Вы не можете голосовать в опросах
Вы не можете прикреплять файлы к сообщениям
Вы можете скачивать файлы